AdBlock Activado!

Por favor, desactive Adblock para acceder a este sitio.
Esta pagina se mantiene gracias a la publicidad.
Para acceder a este sitio debes permitir la publicidad.

Juego de tronos 4K/BDRemux - MadeInTorrenT - Descarga los mejores estrenos de peliculas y series por torrent.

Juego de tronos 4K/BDRemux

Serie de TV (2011-2019). 8 temporadas. 73 episodios.

La historia se desarrolla en un mundo ficticio de carácter medieval donde hay Siete Reinos.

Hay tres líneas argumentales principales: la crónica de la guerra civil dinástica por el control de Poniente entre varias familias nobles que aspiran al Trono de Hierro; la creciente amenaza de "los otros", seres desconocidos que viven al otro lado de un inmenso muro de hielo que protege el Norte de Poniente; y el viaje de Daenerys Targaryen, la hija exiliada del rey que fue asesinado en una guerra civil anterior, y que pretende regresar a Poniente para reclamar sus derechos dinásticos.

Tras un largo verano de varios años, el temible invierno se acerca a los Siete Reinos. Lord Eddard 'Ned' Stark, señor de Invernalia, deja sus dominios para ir a la corte de su amigo, el rey Robert Baratheon, en Desembarco del Rey, la capital de los Siete Reinos.

Stark se convierte en la Mano del Rey e intenta desentrañar una maraña de intrigas que pondrá en peligro su vida y la de todos los suyos. Mientras tanto, diversas facciones conspiran con un solo objetivo: apoderarse del trono. 

[4K UHDrip][2160p][HDR][AC3 5.1 Castellano True HD 5.1-Ingles+Subs][ES-EN]

[BDremux 1080p][DTS 5.1 Castellano-DTS 5.1 Ingles+Subs][ES-EN]

  • Director: David Benioff (Creador), D.B. Weiss (Creador), Timothy Van Patten, Brian Kirk, Daniel Minahan, Alan Taylor, Neil Marshall, David Benioff, Alex Graves,
  • Reparto: Lena Headey, Peter Dinklage, Maisie Williams, Emilia Clarke, Kit Harington, Nikolaj Coster-Waldau, Sophie Turner, Michelle Fairley, Sean Bean, Charles Dance, Jack Gleeson, Rory McCann, Isaac Hempstead Wright, Mark Addy, Alfie Allen, Iain Glen, Aidan Gillen, Conleth Hill, Richard Madden, Stephen Dillane, Carice van Houten, Natalie Dormer, John Bradley, Nathalie Emmanuel, Jerome Flynn, Gwendoline Christie, Sibel Kekilli, Jason Momoa, Jonathan Pryce, Dean-Charles Chapman, Liam Cunningham, Michael McElhatton, Diana Rigg, Finn Jones, Ian McElhinney, Jacob Anderson, Oona Chaplin, Bella Ramsey,
  • Año: 2011-2019
  • País: Estados Unidos
  • Genero: Aventuras
  • Calidad: Muy Alta
  • Tipo de Calidad: 4K UHDRemux HDR
  • Idioma: Varios Idiomas
(3 votos)
Visto 5128 Veces

Usuario en la conversacion

  • Kusko
  • Schedar
  • Bukaro
Kusko
This comment was minimized by the moderator on the site

6ª temporada (279,53 GB)..

Kusko
This comment was minimized by the moderator on the site

5ª temporada (282,38 GB)..

Kusko
This comment was minimized by the moderator on the site

4ª temporada (289,65 GB)

compartidas la 3ª y 4ª (4K)....

Kusko
This comment was minimized by the moderator on the site

3ª temporada (290,74 GB)
Audio #5
ID : 7
ID in the original source medium : 4355 (0x1103)
Format : AC-3
Format/Info : Audio Coding 3
Commercial name : Dolby Digital
Format settings : Dolby Surround
Codec ID : A_AC3
Duration : 1 h 5 min
Bit rate mode : Constant
Bit rate : 256 kb/s
Channel(s) : 2 channels
Channel layout : L R
Sampling rate : 48.0 kHz
Frame rate : 31.250 FPS (1536 SPF)
Compression mode : Lossy
Delay relative to video : 2 s 2 ms
Stream size : 120 MiB (0%)
Title : Game.of.Thrones.S04E10.The.Children.2160p.BluRay.REMUX.HEVC.DTS-HD.MA.TrueHD.7.1.Atmos-FGT
Language : Spanish
Service kind : Complete Main
Default : No
Forced : No
Original source medium : Blu-ray

Bukaro
This comment was minimized by the moderator on the site

Muchisimas gracias Kusko

Kusko
This comment was minimized by the moderator on the site

2ª temporada (290,88 GB)

Audio #5 ID : 7 ID in the original source medium : 4355 (0x1103)
Format : AC-3 Format/Info : Audio Coding 3 Commercial name : Dolby Digital Format settings : Dolby Surround
Codec ID : A_AC3 Duration : 1 h 3 min
Bit rate mode : Constant Bit rate : 256 kb/s
Channel(s) : 2 channels Channel layout : L R
Sampling rate : 48.0 kHz Frame rate : 31.250 FPS (1536 SPF)
Compression mode : Lossy Delay relative to video : 2 s 2 ms
Stream size : 116 MiB (0%) Title : Game.of.Thrones.S02E10.Valar.Morghulis.2160p.BluRay.REMUX.HEVC.DTS-HD.MA.TrueHD.7.1.Atmos-FGT
Language : Spanish
Service kind : Complete Main
Default : No
Forced : No
Original source medium : Blu-ray

Game.of.Thrones.S02.2160p.BluRay.REMUX.HEVC.DTS-HD.MA.TrueHD.7.1.Atmos-FGT

Kusko
This comment was minimized by the moderator on the site

COMPARTIDA LA 2ª TEMPORADA 4K EN ¡¡¡ CASTELLANO!!!

Bueno chic@s, por el momento la 2ª tempada en castellano (4k)..
por defecto esta en ingles..hay que elegir el audio en el reproductor o TV..

Bukaro
This comment was minimized by the moderator on the site

Kusko: Me refiero, claro está, 4K y en Castellano

Bukaro
This comment was minimized by the moderator on the site

Kusko: Lamento sinceramente ser pesao, pero ¿Para cuando nos vas a dar la alegría de poner todas las temporadas en 4K?
Gracias

Bukaro
This comment was minimized by the moderator on the site

Kusko:
¿Para cuando las temporadas de Juego de Tronos en 4K en Español ? Estamos deseando que las pongas.
Un saludo

Kusko
This comment was minimized by the moderator on the site

7ª Temporada compartida en 4K en V.O.S.E..

Kusko
This comment was minimized by the moderator on the site

6ª Temporada compartida en 4K en V.O.S.E..

Kusko
This comment was minimized by the moderator on the site

5ª Temporada compartida en 4K en V.O.S.E..

Kusko
This comment was minimized by the moderator on the site

4ª Temporada compartida en 4K en V.O.S.E..

Kusko
This comment was minimized by the moderator on the site

3ª Temporada compartida en 4K pero por el momento en V.O.S.E..

Kusko
This comment was minimized by the moderator on the site

2ª Temporada compartida en 4K pero por el momento en V.O.S.E..

Bukaro
This comment was minimized by the moderator on the site

Ya queda menos para tenerlas en Castellano.
Gracias Kusko

Kusko
This comment was minimized by the moderator on the site

8ª temporada compartida en calidad

[BDremux 1080p][DTS 5.1 Castellano-DTS 5.1 Ingles+Subs][ES-EN] ..

Kusko
This comment was minimized by the moderator on the site

7ª temporada compartida en calidad

[BDremux 1080p][DTS 5.1 Castellano-DTS 5.1 Ingles+Subs][ES-EN] ..

Kusko
This comment was minimized by the moderator on the site

6ª temporada compartida en calidad

[BDremux 1080p][DTS 5.1 Castellano-DTS 5.1 Ingles+Subs][ES-EN] ..

Kusko
This comment was minimized by the moderator on the site

5ª temporada compartida en calidad

[BDremux 1080p][DTS 5.1 Castellano-DTS 5.1 Ingles+Subs][ES-EN] ..

There are no comments posted here yet
Ver más comentarios

Deja tus comentarios